#TITLE:Ear Rape;
#SUBTITLE:;
#ARTIST:CornandBeans;
#TITLETRANSLIT:;
#SUBTITLETRANSLIT:;
#ARTISTTRANSLIT:;
#CREDIT:;
#BANNER:;
#BACKGROUND:;
#LYRICSPATH:;
#CDTITLE:;
#MUSIC:Ear Rape.mp3;
#OFFSET:0.000;
#SAMPLESTART:28.184;
#SAMPLELENGTH:12.000;
#SELECTABLE:YES;
#BPMS:0.000=183.620,72.250=218.440,73.500=296.460,76.125=388.878,83.625=422.898,89.375=507.317,98.375=146.900,100.625=112.880,104.875=93.260,105.625=521.676,106.875=600.495,109.875=121.680,112.375=346.099,113.625=440.918,114.625=533.337,116.375=558.556,117.125=602.976,121.625=624.996,123.125=130.561,124.125=103.741,125.125=89.721,128.375=86.941,146.000=307.361,211.375=109.341,251.000=240.762,256.500=117.521;
#STOPS:145.875=2.000
;
#BGCHANGES:;
// cache tags:
#FIRSTBEAT:0.000;
#LASTBEAT:277.875;
#SONGFILENAME:Songs/Music V.I.P ^_^/Ear Rape/Ear Rape.sm;
#HASMUSIC:1;
#HASBANNER:0;
#MUSICLENGTH:98.246;
// end cache tags

//---------------dance-single - OHNOEZ!!!!!!!!!----------------
#NOTES:
     dance-single:
     OHNOEZ!!!!!!!!!:
     Edit:
     15:
     1.000,1.000,1.000,1.000,1.000,1914.000,317.000,464.000,0.000,215.000:
1000
0100
0000
1000
0100
1000
0100
0010
0001
1000
0000
0100
0010
0100
1000
0100
0010
0001
0000
1000
0010
1000
0010
1000
0100
0001
0010
0000
1000
0100
1000
0100
,
0001
0000
0000
0000
0000
0000
0010
0000
0000
0000
0000
0000
0100
0000
0000
0000
0000
0000
1000
0000
0000
0000
0000
0000
0000
0000
0000
0000
0000
0000
0101
0000
0000
0000
0000
0000
1010
0000
0000
0000
0000
0000
0000
0000
0000
0000
0000
0000
0001
0000
0000
0000
0010
0000
0000
0000
0100
0000
0000
0000
1000
0000
0000
0000
0000
0000
0000
0000
0000
0000
0000
0000
1100
0000
0000
0000
0000
0000
0001
0000
0000
0000
0000
0000
0010
0000
0000
0000
0000
0000
0000
0000
0000
0000
0000
0000
0000
0000
0000
0000
0000
0000
0000
0000
0000
0000
0000
0000
0001
0000
0000
0000
0000
0000
0010
0000
0000
0000
0000
0000
0100
0000
0000
0000
0000
0000
0001
0000
0000
0000
0000
0000
0010
0000
0000
0000
0000
0000
0100
0000
0000
0000
0000
0000
0001
0000
0000
0000
0000
0000
0010
0000
0000
0000
0000
0000
0100
0000
0000
0000
0000
0000
1000
0000
0000
0000
0000
0000
0100
0000
0000
0000
0000
0000
1000
0000
0000
0000
0000
0000
0100
0000
0000
0000
0001
0000
0000
0000
0010
0000
0000
0000
,
0100
0000
0000
0000
1000
0000
0000
0000
0000
0000
0000
0000
0100
0000
0000
0000
0000
0000
0100
0000
0000
0000
0000
0000
1000
0000
0000
0000
0000
0000
0100
0000
0000
0000
0000
0000
0010
0000
0000
0000
0000
0000
0001
0000
1000
0000
0000
0000
0010
0000
0000
0000
0100
0000
0000
0000
0001
0000
0000
0000
0010
0000
0000
0000
1000
0000
0000
0000
0100
0000
0000
0000
0001
0000
0000
0000
0000
0000
1000
0000
0000
0000
0000
0000
0100
0000
0000
0000
0000
0000
0010
0000
0000
0000
0000
0000
0001
0000
0000
0000
1000
0000
0000
0000
0001
0000
0000
0000
0100
0000
0000
0000
0010
0000
0000
0000
1000
0000
0000
0000
0100
0000
0000
0000
0010
0000
0000
0000
0100
0000
0000
0000
0001
0000
0000
0000
0010
0000
0000
0000
0100
0000
0000
0000
1000
0000
0000
0000
0000
0000
0100
0000
0000
0000
0000
0000
1000
0000
0000
0000
0000
0000
0100
0000
0000
0000
0000
0000
0001
0000
0000
0000
0000
0000
0010
0000
0000
0000
0000
0000
0100
0000
0000
0000
0000
0000
1000
0000
0000
0000
0000
0000
,
0001
0010
0001
1000
0100
0010
0001
1000
1000
0001
0010
0100
0010
0100
1000
0100
0010
1000
0100
0010
0001
0000
0000
0000
0000
0000
0000
0000
0000
1000
0100
1000
,
0100
0000
0000
0000
0000
0000
0001
0000
0000
0000
0000
0000
0010
0000
0000
0000
0000
0000
0100
0000
0000
0000
0000
0000
1000
0000
0000
0000
0000
0000
0001
0000
0000
0000
0000
0000
0010
0000
0000
0000
0000
0000
0001
0000
0000
0000
0000
0000
0010
0000
0000
0000
0000
0000
0100
0000
0000
0000
0000
0000
1000
0000
0000
0000
0000
0000
0001
0000
0000
0000
0000
0000
0010
0000
0000
0000
0000
0000
0100
0000
0000
0000
0000
0000
1000
0000
0000
0000
0001
0000
0000
0000
0010
0000
0000
0000
0100
0000
0000
0000
0001
0000
0000
0000
0010
0000
0000
0000
0100
0000
0000
0000
0000
0000
0000
0000
0000
0000
0000
0000
0000
0000
0000
0000
0000
0000
1000
0000
0000
0000
0000
0000
0100
0000
0000
0000
0000
0000
0001
0000
0000
0000
0000
0000
0010
0000
0000
0000
0000
0000
0100
0000
0000
0000
0000
0000
1000
0000
0000
0000
0000
0000
0001
0000
0000
0000
0000
0000
0010
0000
0000
0000
0000
0000
0001
0000
0000
0000
0000
0000
1000
0000
0000
0000
0000
0000
0100
0000
0000
0000
0000
0000
,
0022
0000
0000
0000
0000
0000
0000
0000
0000
0000
0000
0000
0033
0000
0000
0000
0000
0000
1000
0000
0000
0000
0000
0000
0100
0000
0000
0000
0000
0000
1000
0000
0000
0000
0000
0000
0100
0000
0000
0000
0000
0000
0001
0000
0000
0000
0000
0000
0010
0000
0000
0000
0000
0000
0100
0000
0000
0000
0000
0000
1000
0000
0000
0000
0000
0000
0001
0000
0000
0000
0000
0000
0010
0000
0000
0000
0000
0000
0001
0000
0000
0000
0000
0000
0010
0000
0000
0000
0000
0000
0100
0000
0000
0000
0000
0000
1000
0000
0000
0000
0001
0000
0000
0000
0100
0000
0000
0000
0010
0000
0000
0000
1000
0000
0001
0000
0000
0000
0000
0000
0010
0000
0000
0000
0000
0000
0001
0000
0000
0000
0000
0000
0010
0000
0000
0000
0000
0000
0100
0000
0000
0000
0000
0000
2020
0000
0000
0000
0000
0000
0000
0000
0000
0000
0000
0000
3030
0000
0000
0000
0000
0000
0001
0000
0000
0000
0000
0000
0010
0000
0000
0000
0000
0000
0100
0000
0000
0000
0000
0000
1000
0000
0000
0000
0000
0000
0100
0000
0000
0000
0000
0000
,
1000
0000
0000
0000
0001
0000
0000
0000
0010
0000
0000
0000
0100
0000
0000
0000
0001
0000
0000
0000
0010
0000
0000
0000
0100
0000
0000
0000
0000
0000
1000
0000
0000
0000
0000
0000
0100
0000
0000
0000
0000
0000
1000
0000
0000
0000
0000
0000
0100
0000
0000
0000
0000
0000
0010
0000
0000
0000
0000
0000
0001
0000
0000
0000
0000
0000
1000
0000
0000
0000
0000
0000
0101
0000
0000
0000
0000
0000
0010
0000
0000
0000
0000
0000
1100
0000
0000
0000
0000
0000
0000
0000
0000
0000
0000
0000
0001
0000
0000
0000
0000
0000
0000
0000
0000
0000
0000
0000
0110
0000
0000
0000
0000
0000
0000
0000
0000
0000
0000
0000
1000
0000
0000
0000
0000
0000
0011
0000
0000
0000
0000
0000
0100
0000
0000
0000
0000
0000
0100
0000
0000
0000
0000
0000
1001
0000
0000
0000
0000
0000
0010
0000
0000
0000
0000
0000
0010
0000
0000
0000
0000
0000
1001
0000
0000
0000
0000
0000
0100
0000
0000
0000
0000
0000
0100
0000
0000
0000
0000
0000
0011
0000
0000
0000
0000
0000
1000
0000
0000
0000
0000
0000
,
1000
0101
0011
0110
1100
0110
0011
0110
1100
0001
0001
0110
1000
1000
0011
0100
0100
1001
0010
0010
0011
0100
0100
0101
1000
1000
0011
0100
0100
1001
0010
0010
,
1001
0100
0100
0011
1000
1202
0000
0313
0010
1100
0101
1010
0011
0110
1100
1101
0010
0010
1100
0110
0011
0101
1001
0101
0011
0220
1000
0000
0331
1100
0011
1100
,
1010
0000
0000
0000
0000
0000
1001
0000
0000
0000
0000
0000
0110
0000
0000
0000
0000
0000
1100
0000
0000
0000
0000
0000
0110
0000
0000
0000
0000
0000
0011
0000
0000
0000
0000
0000
0110
0000
0000
0000
0000
0000
1100
0000
0000
0000
0000
0000
0110
0000
0000
0000
0000
0000
0011
0000
1000
0000
0000
0000
0100
0000
0000
0000
0010
0000
0000
0000
0001
0000
0000
0000
0100
0000
0000
0000
0010
0000
0000
0000
0001
0000
0000
0000
1000
0000
0000
0000
0000
0000
1000
0000
0000
0000
0000
0000
0001
0000
0000
0000
0000
0000
0010
0000
0000
0000
0000
0000
0100
0000
0000
0000
0000
0000
1000
0000
0000
0000
0000
0000
0001
0000
0000
0000
0000
0000
0001
0000
0000
0000
0000
0000
1000
0000
0000
0000
0000
0000
0100
0000
0000
0000
0000
0000
0010
0000
0000
0000
0000
0000
0001
0000
0000
0000
0000
0000
0100
0000
0000
0000
0000
0000
0100
0000
0000
0000
0000
0000
0001
0000
0000
0000
0000
0000
0010
0000
0000
0000
0000
0000
0100
0000
0000
0000
0000
0000
1000
0000
0000
0000
0000
0000
,
0010
0010
1000
0100
0010
0001
0010
0010
1000
0100
0010
0001
1000
1000
0001
0010
0100
1000
0001
0001
1000
0100
0010
0001
0100
0100
0001
0010
0100
1000
0010
0010
,
1000
0100
0010
2201
0000
3300
0100
0001
0010
0100
1000
0010
0010
1000
0100
0010
0001
0100
0100
0001
0010
0100
1000
0010
0010
1000
0100
0010
0001
0100
0100
2021
,
0000
3130
1000
0100
0010
0001
0010
0200
0300
0001
0001
0010
0100
0010
1000
1000
0001
0100
0001
2020
0000
3031
0001
1000
0010
1000
0100
0100
0001
1000
0001
0100
,
0100
0001
0010
0001
1000
1000
0010
0100
0010
0001
0001
1000
0100
1022
0000
1033
1000
0001
0010
0001
0100
0100
0001
1000
0001
0010
0010
0100
0001
0100
0001
0001
,
1000
0010
1000
0022
0000
1033
1000
0100
0010
0100
0001
0001
1000
0010
1000
0001
0001
1000
0100
1000
0010
0010
1000
0100
1000
0001
0001
1000
0010
1000
0010
0010
,
1000
0202
1000
0313
0010
1000
0100
1000
0001
0001
0100
0010
0100
0001
0001
1000
0100
1000
0010
0010
1000
0202
0000
0313
0010
1000
0100
1000
0010
0010
1000
0001
,
1000
0001
0001
1000
0100
1000
0001
0001
0100
0010
0100
0202
0000
0313
0010
1000
0100
1000
0010
0010
1000
0001
1000
0001
0001
0100
0010
0100
0001
0001
1000
0100
,
1000
0010
0010
1000
0001
1000
0010
0220
0000
1330
0100
1000
0001
0001
0100
0010
0100
0001
0001
1000
0100
1000
0010
0010
1000
0010
0100
0022
0000
1033
1000
0010
,
0100
0010
1000
0100
0010
0001
0010
0100
0010
0001
0010
0100
1000
0202
0000
0313
0001
0010
0100
1000
0022
0000
0133
1000
0100
0010
0001
0010
2200
0000
3300
0010
,
0001
2200
0000
3322
0000
2233
0000
3322
0000
2233
0000
3322
0000
2233
0000
3322
0000
2233
0000
3322
0000
2233
0000
3322
0000
2233
0000
3322
0000
2233
0000
3322
,
0000
2233
0000
3322
0000
2233
0000
3322
0000
2233
0000
3322
0000
2233
0000
3322
0000
2233
0000
3322
0000
2233
0000
3322
0000
2233
0000
3322
0000
2233
0000
3322
,
0000
2233
0000
3322
0000
2233
0000
3322
0000
2233
0000
3322
0000
2233
0000
3322
0000
2233
0000
3322
0000
2233
0000
3322
0000
2233
0000
3322
0000
2233
0000
3322
,
0000
2233
0000
3322
0000
2233
0000
3322
0000
2233
0000
3322
0000
2233
0000
3322
0000
2233
0000
3322
0000
2233
0000
3322
0000
2233
0000
3322
0000
2233
0000
3322
,
0000
2233
0000
3322
0000
2233
0000
3322
0000
2233
0000
3322
0000
2233
0000
3322
0000
2233
0000
3322
0000
2233
0000
3322
0000
2233
0000
3322
0000
2233
0000
3322
,
0000
2233
0000
3322
0000
2233
0000
3322
0000
2233
0000
3322
0000
2233
0000
3322
0000
2233
0000
3322
0000
2233
0000
3322
0000
2233
0000
3322
0000
2233
0000
3322
,
0000
2233
0000
3322
0000
2233
0000
3322
0000
2233
0000
3322
0000
2233
0000
3322
0000
2233
0000
3322
0000
2233
0000
3322
0000
2233
0000
3322
0000
2233
0000
3322
,
0000
2233
0000
3322
0000
2233
0000
3322
0000
2233
0000
3322
0000
2233
0000
3322
0000
2233
0000
3322
0000
2233
0000
3322
0000
2233
0000
3322
0000
2233
0000
3322
,
0000
2233
0000
3322
0000
2233
0000
3322
0000
2233
0000
3322
0000
2233
0000
3322
0000
1033
0100
0010
0001
0010
0100
0010
0001
2200
0000
3310
0001
0010
0100
1000
,
0100
0022
0000
2233
0000
3322
0000
2233
0000
3322
0000
2233
0000
3322
0000
2233
0000
3322
0000
2233
0000
3322
0000
2233
0000
3322
0000
2233
0000
3322
0000
2233
,
0000
3322
0000
2233
0000
3322
0000
2233
0000
3322
0000
2233
0000
3322
0000
2233
0000
3322
0000
2233
0000
3322
0000
2233
0000
3322
0000
2233
0000
3322
0000
2233
,
0000
3322
0000
2233
0000
3322
0000
2233
0000
3322
0000
2233
0000
3322
0000
2233
0000
3322
0000
2233
0000
3322
0000
2233
0000
3322
0000
2233
0000
3322
0000
2233
,
0000
3322
0000
2233
0000
3322
0000
2233
0000
3322
0000
2233
0000
3311
0100
0100
1011
0100
0100
0011
1000
0100
0001
0010
1000
0100
0010
0001
0100
0010
1000
0001
,
0100
0100
0011
1100
0010
0010
1000
0100
0001
0010
0100
0100
0011
0011
1100
1100
0101
1010
0001
0010
0100
0001
0010
0100
0010
0100
1000
0010
0100
1000
0100
1000
,
0100
0010
0100
1000
0010
0100
1000
0011
1000
0011
0100
0001
0001
1000
0100
0010
0001
0100
0010
0001
0010
0100
0010
0001
0010
0100
1000
0100
0010
0100
1000
0100
,
0010
0100
1000
0100
0010
0100
1000
0100
0010
0100
1000
0100
0010
0100
1000
0100
0010
0100
1000
0100
0010
0100
1000
0100
0010
1000
0100
0010
1000
0100
0010
0001
,
0010
0100
0010
0001
0010
0100
1000
0100
0010
0001
0010
0100
0010
0001
0010
0100
1000
0001
0010
0100
1000
0010
0100
1000
0100
0010
0001
0010
0100
0010
0001
0010
,
0001
0010
0100
1000
0001
0010
0100
1000
1000
0100
0010
0100
0010
0001
0010
0000
1000
0100
0010
0100
0010
0100
1000
0100
0010
0001
0010
0100
0010
0001
0010
0100
,
0010
0001
0010
0001
0010
0001
0010
0100
1000
0100
0010
0100
0010
0001
0010
0100
0010
0001
0010
0001
0010
0001
0010
0100
1000
0001
0010
0100
0010
0001
0010
0001
,
0010
0001
0010
0100
1000
0001
0010
0100
1000
0100
0010
0100
0010
0001
0010
0100
1000
0100
0010
0100
1000
0100
0010
0001
0010
0001
0010
0100
1000
0100
0010
0001
,
1000
0100
0010
0001
1000
0100
0010
0001
1000
0100
0010
0001
0010
0100
0010
0001
0010
0100
1000
0001
0010
0100
0001
0010
0100
0001
0010
0100
1000
0010
0100
1000
,
0010
0100
1000
0010
0100
1000
0001
0010
0100
0001
0010
0100
1000
0010
0100
1000
0001
0010
0100
0010
0001
0010
0100
1000
0100
0010
0100
0010
0001
0010
0100
1000
,
0100
0010
0001
0010
0100
0010
0001
0010
0100
1000
0100
0010
0100
0010
0001
0010
0100
1000
0100
0010
0001
0010
0100
1000
0100
0001
0010
0100
1000
0001
0100
1000
,
0010
0000
0000
0000
0000
0000
0100
0000
0000
0000
0000
0000
0001
0000
0000
0000
0000
0000
0010
0000
0000
0000
0000
0000
1000
0000
0000
0000
0001
0000
0000
0000
0010
0000
0000
0000
0100
0000
0000
0000
1000
0000
0001
0000
0000
0000
0000
0000
0010
0000
0000
0000
0000
0000
0001
0000
0000
0000
0000
0000
0010
0000
0000
0000
0000
0000
0001
0000
0000
0000
0000
0000
0010
0000
0000
0000
0000
0000
0100
0000
0000
0000
0000
0000
1000
0000
0000
0000
0000
0000
0100
0000
0000
0000
0000
0000
1000
0000
0000
0000
0000
0000
0100
0000
0000
0000
0000
0000
1000
0000
0000
0000
0000
0000
0100
0000
0000
0000
0000
0000
1000
0000
0000
0000
0000
0000
0100
0000
0000
0000
0000
0000
1000
0000
0000
0000
0000
0000
0100
0000
0000
0000
0000
0000
1000
0000
0000
0000
0000
0000
0100
0000
0000
0000
0000
0000
0010
0000
0000
0000
0000
0000
0100
0000
0000
0000
0000
0000
0010
0000
0000
0000
0000
0000
0100
0000
0000
0000
0000
0000
0010
0000
0000
0000
0000
0000
0100
0000
0000
0000
0000
0000
,
0010
0100
0010
0100
0010
0100
0001
0100
0001
0100
0001
0100
0001
0100
0001
0100
0001
0100
0001
0100
0001
1000
0100
0010
0001
0010
0100
0010
0001
0010
0100
1000
,
0100
0010
0001
0010
0100
0011
0011
0011
0011
0110
0110
0110
0110
1100
1100
1100
1100
1010
1010
1010
1010
1001
1001
1001
1001
0101
0101
0101
0101
0011
0011
0011
,
0011
1000
0100
0010
0001
0010
0100
0010
0001
0010
0100
0010
0001
0010
0001
0010
0001
0010
0100
1000
0100
0010
0001
0010
0100
0010
0001
0010
0001
0010
0100
1000
,
0100
0010
0100
0010
0100
1000
0100
0010
0100
1000
0100
0010
0001
0010
0100
0010
0001
0010
0100
1000
0100
1000
0100
1000
0100
1000
0100
1000
0010
1000
0010
1000
,
0010
1000
0010
1000
0010
1000
0001
1000
0001
1000
0001
1000
0001
1000
0001
1000
0001
0100
0001
0100
0001
0100
0001
0100
0001
0100
0001
0010
0001
0010
0001
0010
,
0001
0010
0001
0010
0001
0010
0001
1000
0100
0010
0001
0010
0100
1000
0100
0010
0100
1000
0100
0010
0100
0010
0100
0010
0100
0010
0001
0010
0100
0010
0001
0010
,
0100
1000
0100
0010
0100
0010
0001
0010
0100
1000
0100
0010
0100
0010
0001
0010
0100
1000
0001
0010
0001
0010
1000
0100
0010
0001
0010
0100
0001
0010
0100
0010
,
0100
0010
0100
0001
0010
0100
1000
0100
0010
1000
0100
0010
0001
0010
0100
0010
1000
0100
0010
0001
0010
0100
0010
0001
0010
0100
1000
0100
0010
0100
0010
0100
,
0010
0100
1000
0100
0010
0001
0010
0100
1000
0100
0010
0001
0010
0100
0010
0001
0010
0100
0010
0001
0010
0001
0010
0001
0010
0100
0010
0001
0010
0100
1000
0100
,
0010
0100
1000
0100
0010
0001
0010
0001
0010
0001
0010
0100
0010
0001
0010
0100
0010
0001
0010
0100
0010
0001
0010
0001
0010
0001
0010
0001
1100
1100
1100
0001
,
0010
0001
0010
0100
1000
0100
0010
0001
0010
0100
0010
0001
0010
0100
0100
0100
0001
0010
0100
1000
0001
0010
0100
0010
0001
0010
0100
1000
0100
0010
0100
0010
,
0001
0010
0100
0001
0010
0100
0001
0010
0100
1000
0100
0010
0001
0010
0100
0010
0001
0010
0001
0010
0100
0010
0001
0010
0100
1000
1000
1000
0001
0010
0100
0010
,
0001
0010
0100
0010
0001
0010
0001
0010
0100
0010
0001
0010
1000
0100
0010
0001
0010
0100
0010
0001
0010
0001
0010
0100
1000
1000
1000
0001
0010
0100
0010
0001
,
0010
0001
0010
0010
0010
0010
0100
1000
0001
0010
0100
0010
0001
0010
0100
0001
0010
0100
0010
0001
0010
0100
0010
0001
0010
0100
0010
0001
1000
0100
0010
0100
,
1000
0100
0010
0100
1000
0100
0010
0100
1000
0001
0010
0100
1000
0100
0010
0100
1000
0100
0010
0001
0010
0100
1000
0100
0010
0001
0010
0100
0010
0001
0010
0100
,
0010
0001
0010
0100
1000
0100
0010
0100
1000
0100
0010
0100
1000
0100
0010
0001
0010
0100
0010
0001
0010
0100
1000
0100
0010
0100
1000
0100
0010
0001
0010
0100
,
1000
0100
0010
0001
0010
0100
1000
0100
0010
0001
0010
0100
1000
0100
0010
0001
1000
0100
0010
0001
0010
0100
0010
0001
0010
0100
0010
0001
1000
0100
0010
0001
,
0010
0100
0010
0001
0010
0100
1000
0100
0010
0001
0010
0001
0010
0100
1000
0100
0010
0001
0010
0100
1000
0100
0010
0001
0010
0001
0010
0100
1000
0100
0010
0100
,
0010
0001
0010
0100
1000
1000
1000
0001
0010
0100
0010
0001
0001
0001
1000
0100
0010
0001
0010
0100
0010
0001
0010
0100
1000
0100
0010
0001
1000
0100
0010
0001
,
1000
0100
0010
0001
0010
0100
0010
0001
0010
0100
1000
0001
0010
0100
1000
0001
0010
0100
0010
0001
0010
0100
0010
0001
1000
0100
0010
0001
1000
0100
0010
0001
,
0010
0100
1000
0100
0010
0001
0010
0100
0010
0001
0010
0100
1000
0100
1000
0100
0001
0010
0100
0010
0001
0010
0100
1000
0100
0010
0001
0010
0100
0010
0001
0010
,
0100
0010
0001
0010
0001
1100
0011
0110
1100
0011
0111
1110
0111
1100
0010
0001
0110
1100
0001
0010
0100
1000
0100
0010
0001
0010
0100
0010
0001
0010
0001
0010
,
0100
0100
0100
0002
0000
0020
0003
0000
0230
0000
0000
2300
0000
0000
3200
0000
0000
0320
0000
0000
0032
0000
0000
2003
0000
0000
3200
0000
0000
0320
0000
0000
,
0032
0000
0000
0023
0000
0000
0230
0000
0000
2300
0000
0000
3200
0000
0000
0320
0000
0000
0032
0000
0000
0023
0000
0000
0230
0000
0000
2300
0000
0000
3200
0000
,
0000
0320
0000
0000
0032
0000
0000
0023
0000
0000
0230
0000
0000
2300
0000
0000
3200
0000
0000
0320
0000
0000
0032
0000
0000
0023
0000
0000
0230
0000
0000
2300
,
0000
0000
3200
0000
0000
0320
0000
0000
0032
0000
0000
0023
0000
0000
0230
0000
0000
2300
0000
0000
3200
0000
0000
0320
0000
0000
0032
0000
0000
0023
0000
0000
,
0230
0000
0000
2300
0000
0000
3200
0000
0000
0320
0000
0000
0032
0000
0000
0003
0000
0000
0000
0000
0000
0000
0000
0000
0000
0000
0000
0000
0000
0000
0000
0000
:

a=4x. Mines. note=20.000000,
;
